Main Page Sitemap

Jackpot junction charley pride


7 Pride has generally spoken with fondness of the near-decade he spent there.
7 Pride batted.444 his first year.
Helena As She Was.
Helena As She Was: lotto online usa A Cooperative History Resource.M Archived July 31, 2012, at day m Archived September 27, 2007, at the Wayback Machine a b "Charley Pride Grand Ole Opry".Charley Frank Pride (born March 18, 1934) 1 is an American country music singer, musician, guitarist, recording artist, performer, business owner, and former baseball player."Never Give an Inch (1970) : Awards".DR11 -0.11 dB -13.51 dB 2:48 02-Distant Drums.
17 He celebrated his 25th anniversary of becoming a member with performances at the Opry on May 4 and May 5, 2018.
Retrieved August 10, 2008.




Charley Pride leads Arkansas lawmakers in song, USA Today, February 12, 2009.26 In 1975, Pride's agent sold a 40-date tour package to a United Kingdom booking agent, who onward sold four dates to Dublin-based Irish music promoter Jim Aiken.Retrieved November 22, 2015.25 "Kiss an Angel Good Mornin became Pride's signature tune.22 Each major league team drafted one player from the Negro leagues, as Charley and his brother Mack were among the negro leaguers selected.DR11 -0.11 dB -13.05 dB 3:19 10-Miller's Cave."Country singer Charley Pride returns to the UK".11 12 When he was laid off by the Timberjacks, he moved to work construction in Helena, Montana, in 1960.A b m Archived May 17, 2014, at the Wayback Machine "Biography".In 1966, he released his first RCA Victor single, "The Snakes Crawl at Night".Retrieved July 23, 2011.Height of his career edit The success of "Just Between You and Me" was enormous.
DR Peak coffre sur roulette a vendre RMS Duration Track.





DR12 -0.11 dB -14.38 dB 3:06 03-Detroit City.
They currently reside in Dallas, Texas.
Pride played three games for the Missoula Timberjacks of the Pioneer League 10 (a farm club of the Cincinnati Reds ) in 1960, 11 and had tryouts with the California Angels (1961) and the New York Mets (1962) organizations, but was not picked.

Sitemap